Главная форума Обсуждение товаров в каталоге Автомагнитолы

Prology DVU-1500

Ответить
  • grehov Neophyte PosterАвтор темы
    офлайн
    grehov Neophyte Poster Автор темы

    0

    7 лет на сайте
    пользователь #593812

    Профиль
    Написать сообщение

    0
    # 28 мая 2012 22:49

    Для чего служит аудио выход RCA? И есть ли выход на сабвуфер?

  • [cz]Flip Senior Member
    офлайн
    [cz]Flip Senior Member

    2371

    13 лет на сайте
    пользователь #54660

    Профиль
    Написать сообщение

    2371
    # 30 мая 2012 17:06

    Отдельного выхода на сабвуфер нет!
    RCA - служит для подключения внешнего усилителя, собственно его же можно и использовать как выход на сабвуфер!

    Если бы звезды могли улыбатся - счастья хватило бы даже подонкам, просто молчание линией тонкой не избежало излишних градаций
  • kasper_007 Junior Member
    офлайн
    kasper_007 Junior Member

    54

    7 лет на сайте
    пользователь #581909

    Профиль
    Написать сообщение

    54
    # 17 июля 2012 16:53

    может кто расскажет как магнитолка то??

  • [cz]Flip Senior Member
    офлайн
    [cz]Flip Senior Member

    2371

    13 лет на сайте
    пользователь #54660

    Профиль
    Написать сообщение

    2371
    # 17 июля 2012 20:52

    kasper_007, можно брать:)

    Если бы звезды могли улыбатся - счастья хватило бы даже подонкам, просто молчание линией тонкой не избежало излишних градаций
  • andrew-blr Senior Member
    офлайн
    andrew-blr Senior Member

    940

    9 лет на сайте
    пользователь #200453

    Профиль
    Написать сообщение

    940
    # 18 июля 2012 10:38

    как картинка?

  • barboss_hell Member
    офлайн
    barboss_hell Member

    324

    9 лет на сайте
    пользователь #217233

    Профиль
    Написать сообщение

    324
    # 26 июля 2012 13:47

    Сегодня только получил, как поставлю отпишу.

    Work Is a Four-Letter Word
  • Vity-OK Member
    офлайн
    Vity-OK Member

    290

    14 лет на сайте
    пользователь #35436

    Профиль
    Написать сообщение

    290
    # 27 июля 2012 09:12

    Народ. Подскажите как сей девайс проигрывает файлы и папки? Мне важен порядок проигрывания. В алфавитном порядке, как закинул на флэшку или по ТЭГАМ? И нормально ли листаются папки? Есть ли SD вход, если есть, то где?

  • barboss_hell Member
    офлайн
    barboss_hell Member

    324

    9 лет на сайте
    пользователь #217233

    Профиль
    Написать сообщение

    324
    # 27 июля 2012 11:03
    Vity-OK:

    Есть ли SD вход, если есть, то где?

    SD вход под передней панелью.

    Vity-OK:

    И нормально ли листаются папки?

    А что может быть не так с папками? Листаются по очереди в которой их отсортировал девайс.

    Как файлы играет я не смотрел. Но пока не нашел опции Shuffle. Видимо ее нет вообще(((. Это конечно минус.

    Добавлено спустя 5 минут 56 секунд

    andrew-blr:

    как картинка?

    Картинка нормальная. Единственное кириллица как то кривовато смотрится.

    Видео играет отлично. Проверял следующие форматы:

    Video #0
    ID : 0
    Format : MPEG-4 Visual
    Format profile : Advanced Simple@L5
    Format settings, BVOP : 2
    Format settings, QPel : No
    Format settings, GMC : No warppoints
    Format settings, Matrix : Default (MPEG)
    Muxing mode : Packed bitstream
    Codec ID : XVID
    Codec ID/Hint : XviD
    Duration : 1h 39mn
    Bit rate : 1 517 Kbps
    Width : 720 pixels
    Height : 304 pixels
    Display aspect ratio : 2.35:1
    Frame rate : 23.976 fps
    Color space : YUV
    Chroma subsampling : 4:2:0
    Bit depth : 8 bits
    Scan type : Progressive
    Compression mode : Lossy
    Bits/(Pixel*Frame) : 0.289
    Stream size : 1.05 GiB (77%)
    Writing library : XviD 64
    Audio #1
    ID : 1
    Format : AC-3
    Format/Info : Audio Coding 3
    Mode extension : CM (complete main)
    Format settings, Endianness : Big
    Codec ID : 2000
    Duration : 1h 39mn
    Bit rate mode : Constant
    Bit rate : 448 Kbps
    Channel(s) : 6 channels
    Channel positions : Front: L C R, Side: L R, LFE
    Sampling rate : 48.0 KHz
    Bit depth : 16 bits
    Compression mode : Lossy
    Stream size : 319 MiB (23%)
    Alignment : Split accross interleaves
    Interleave, duration : 42 ms (1.00 video frame)
    Interleave, preload duration : 500 ms

    Video #0
    ID : 0
    Format : MPEG-4 Visual
    Format profile : Advanced Simple@L5
    Format settings, BVOP : 1
    Format settings, QPel : No
    Format settings, GMC : No warppoints
    Format settings, Matrix : Custom
    Codec ID : XVID
    Codec ID/Hint : XviD
    Duration : 2h 7mn
    Bit rate : 632 Kbps
    Width : 640 pixels
    Height : 352 pixels
    Display aspect ratio : 16:9
    Frame rate : 25.000 fps
    Color space : YUV
    Chroma subsampling : 4:2:0
    Bit depth : 8 bits
    Scan type : Progressive
    Compression mode : Lossy
    Bits/(Pixel*Frame) : 0.112
    Stream size : 578 MiB (82%)
    Writing library : XviD 64
    Audio #1
    ID : 1
    Format : MPEG Audio
    Format version : Version 1
    Format profile : Layer 3
    Mode : Joint stereo
    Mode extension : MS Stereo
    Codec ID : 55
    Codec ID/Hint : MP3
    Duration : 2h 7mn
    Bit rate mode : Constant
    Bit rate : 128 Kbps
    Channel(s) : 2 channels
    Sampling rate : 48.0 KHz
    Compression mode : Lossy
    Stream size : 117 MiB (17%)
    Alignment : Aligned on interleaves
    Interleave, duration : 80 ms (2.00 video frames)
    Interleave, preload duration : 504 ms
    Writing library : LAME3.98r
    Encoding settings : -m j -V 4 -q 2 -lowpass 17 -b 128
    Language : Russian
    Work Is a Four-Letter Word
  • [cz]Flip Senior Member
    офлайн
    [cz]Flip Senior Member

    2371

    13 лет на сайте
    пользователь #54660

    Профиль
    Написать сообщение

    2371
    # 27 июля 2012 12:25

    Проигрывает файлы и папки в порядке их записи на флешку!

    Если бы звезды могли улыбатся - счастья хватило бы даже подонкам, просто молчание линией тонкой не избежало излишних градаций
  • barboss_hell Member
    офлайн
    barboss_hell Member

    324

    9 лет на сайте
    пользователь #217233

    Профиль
    Написать сообщение

    324
    # 3 августа 2012 09:28

    Девай при высоких температурах за бортом зависает.

    Work Is a Four-Letter Word
  • user_8737507 Member
    офлайн
    user_8737507 Member

    285

    9 лет на сайте
    пользователь #207625

    Профиль
    Написать сообщение

    285
    # 24 октября 2012 09:35

    долго думал и купил не доволен больше всего тем что она стандартного размера не возможно в пихнуть если у вас мало место под панелью хотя все flash магнитолы меньше в 2 раза и еще сразу отказалась работать sd продавец сказал ехать в сервис а в остальном не хватает максимум звука не очень громкая была хендай там не разу на максимум не включил страшно
    буду менять

  • Alexsandr-1991 Member
    офлайн
    Alexsandr-1991 Member

    186

    9 лет на сайте
    пользователь #283522

    Профиль
    Написать сообщение

    186
    # 3 ноября 2012 18:02

    эта магнитола станет в BMW e36 кузове ???

  • [cz]Flip Senior Member
    офлайн
    [cz]Flip Senior Member

    2371

    13 лет на сайте
    пользователь #54660

    Профиль
    Написать сообщение

    2371
    # 5 ноября 2012 10:02

    Alexsandr-1991, она в любую машину станет:)

    Если бы звезды могли улыбатся - счастья хватило бы даже подонкам, просто молчание линией тонкой не избежало излишних градаций
  • mihail1118 Junior Member
    офлайн
    mihail1118 Junior Member

    35

    7 лет на сайте
    пользователь #471508

    Профиль
    Написать сообщение

    35
    # 15 ноября 2012 14:03

    куплю пульт ду.

  • user_8737507 Member
    офлайн
    user_8737507 Member

    285

    9 лет на сайте
    пользователь #207625

    Профиль
    Написать сообщение

    285
    # 16 декабря 2012 09:59

    Alexsandr-1991, она в любую машину станет

    не факт e46 тока что нагой не пихал она большая это при том что нет дисков могли бы и меньше сделать

  • [cz]Flip Senior Member
    офлайн
    [cz]Flip Senior Member

    2371

    13 лет на сайте
    пользователь #54660

    Профиль
    Написать сообщение

    2371
    # 27 декабря 2012 12:02 Редактировалось [cz]Flip, 1 раз.

    8737507, размеры устройств стандартные, и если в 46 кузове 2 дина, то станет без проблем. Если там 1 дин - то естественно не станет:)

    Если бы звезды могли улыбатся - счастья хватило бы даже подонкам, просто молчание линией тонкой не избежало излишних градаций
  • [cz]Flip Senior Member
    офлайн
    [cz]Flip Senior Member

    2371

    13 лет на сайте
    пользователь #54660

    Профиль
    Написать сообщение

    2371
    # 8 января 2013 16:33

    Бред написал, магнитола-то 1 диновая!

    Если бы звезды могли улыбатся - счастья хватило бы даже подонкам, просто молчание линией тонкой не избежало излишних градаций
  • ddol13 Neophyte Poster
    офлайн
    ddol13 Neophyte Poster

    26

    8 лет на сайте
    пользователь #396333

    Профиль
    Написать сообщение

    26
    # 21 февраля 2013 15:37

    Подскажите: barboss_hell приводил примеры видео, которые он в магнитоле просматривал. Неужели она читает непережатые форматы? Кино смотреть не собираюсь. А вот клипы можно пока кого-нить ждёшь в авто. А пережимать заранее как-то лениво. Заранее спасибо.

  • [cz]Flip Senior Member
    офлайн
    [cz]Flip Senior Member

    2371

    13 лет на сайте
    пользователь #54660

    Профиль
    Написать сообщение

    2371
    # 21 февраля 2013 16:42

    ddol13, большинство *.avi прочитает, т.к. кодируются они все равно обычным кодеком. Другое дело клипы сейчас можно даже в *.flv скачать, такой формат точно не прочитает

    Если бы звезды могли улыбатся - счастья хватило бы даже подонкам, просто молчание линией тонкой не избежало излишних градаций
  • ddol13 Neophyte Poster
    офлайн
    ddol13 Neophyte Poster

    26

    8 лет на сайте
    пользователь #396333

    Профиль
    Написать сообщение

    26
    # 21 февраля 2013 16:58

    Спасибо огромное. Видео, как доп опция, приятно. А то родная + модулятор как-то надоело. Буду в Минске, куплю.