основная камера: 140.6°, видео 2688x1520 H.264, G-сенсор, экран 2.7" 920 x 240

 160,00 — 229,00 р. сравнить предложения от 8 продавцов
  • Pushist MemberАвтор темы
    офлайн
    Pushist Member Автор темы

    118

    5 лет на сайте
    пользователь #1258391

    Профиль
    Написать сообщение

    118
    # 25 ноября 2017 01:38 Редактировалось Pushist, 1 раз.

    Как вам?

    ._.
  • Magnus_15 Neophyte Poster
    офлайн
    Magnus_15 Neophyte Poster

    2

    3 года на сайте
    пользователь #1840909

    Профиль
    Написать сообщение

    2
    # 25 ноября 2017 14:06 Редактировалось Magnus_15, 1 раз.

    Есть обзоры, где написано, что регистратор снимает по кодеку H.265...кто-то может внятно и достоверно сказать точную информацию?

  • Kaliningrad7 Senior Member
    офлайн
    Kaliningrad7 Senior Member

    878

    5 лет на сайте
    пользователь #1147644

    Профиль
    Написать сообщение

    878
    # 25 ноября 2017 19:46 Редактировалось Kaliningrad7, 1 раз.
    Magnus_15:

    H.265...кто-то может внятно и достоверно сказать точную информацию?

    код выделить все
    Metadata:
    major_brand : mp42
    minor_version : 0
    compatible_brands: mp42isom
    creation_time : 2017-10-26T15:27:47.000000Z
    Duration: 00:01:00.00, start: 0.000000, bitrate: 22369 kb/s
    Stream #0:0(eng): Video: h264 (High) (avc1 / 0x31637661), yuvj420p(pc, bt709), 2688x1520, 20985 kb/s, 30 fps, 30 tbr, 120k tbn, 240k tbc (default)
    Metadata:
    creation_time : 2017-10-26T15:27:47.000000Z
    handler_name : ?Hisilicon VIDEO
    Stream #0:1(eng): Audio: aac (LC) (mp4a / 0x6134706D), 16000 Hz, mono, fltp, 95 kb/s (default)
    Metadata:
    creation_time : 2017-10-26T15:27:47.000000Z
    handler_name : ?Hisilicon AUDIO


    Выведение продавцов и пиарщиков на чистую воду...)
  • Kaliningrad7 Senior Member
    офлайн
    Kaliningrad7 Senior Member

    878

    5 лет на сайте
    пользователь #1147644

    Профиль
    Написать сообщение

    878
    # 26 ноября 2017 15:30

    Снимает посредственно и крепление трясучее:
    https://yadi.sk/d/PMaY9aMW3Q3ttn

    Выведение продавцов и пиарщиков на чистую воду...)
  • Kenny_McKormick Member
    офлайн
    Kenny_McKormick Member

    269

    9 лет на сайте
    пользователь #250331

    Профиль
    Написать сообщение

    269
    # 5 декабря 2017 08:45

    Есть вообще хоть один нормальный обзор на русском? Никакой информации не могу толком найти по данному зверю.

    Не бывает атеистов в окопах под огнем... Ford S-MAX 2007г.в.,WF0SXXGBWS7S52864.
  • swetikspak Junior Member
    офлайн
    swetikspak Junior Member

    90

    8 лет на сайте
    пользователь #290263

    Профиль
    Написать сообщение

    90
    # 5 декабря 2017 20:18 Редактировалось swetikspak, 1 раз.

    Ой

  • artstar.brest Neophyte Poster
    офлайн
    artstar.brest Neophyte Poster

    8

    6 лет на сайте
    пользователь #809646

    Профиль
    Написать сообщение

    8
    # 31 декабря 2017 17:27

    Купил себе такой же. И столкнулся с массой проблем. При первом подключении к смартфону через YI Dash Cam попросил обновится до свежей v-1.01.017. Обновился… на свою голову… Пропал английский язык, теперь только китайский. Снимает более менее в дневное время только при разрешении 1920х1080 30к/с в остальных разрешениях тормозит видео. В вечернее время сильный шум, номера в машинах не разглядеть. Может все дело в этом дурацком обновлении, а может и в железе…

  • Maxano Member
    офлайн
    Maxano Member

    354

    15 лет на сайте
    пользователь #11829

    Профиль
    Написать сообщение

    354
    # 28 августа 2018 17:22 Редактировалось Maxano, 1 раз.

    Всем привет! Поставил CPL (поляризационный) фильтр, покупал 46 мм переходник на 55 мм и сам cpl фильтр на 55 мм. Думал чуть меньше брать, чем 55 мм, а оказалось как раз, но все же видны края фильтра, хотя можно я думаю еще обсадить кольцо, но боюсь потом снять его будет проблематично. Усаживается переходное кольцо очень плотно. Металлическая рамка (у меня Китайская версия) на объективе показалась хлипкой, обсаживал аккуратно по кругу. Поляризационный фильтр брал тонкую версию специально, но все же есть и более тонкие фильтры.

  • GooDMooD Фото-юзер года
    офлайн
    GooDMooD Фото-юзер года

    6531

    14 лет на сайте
    пользователь #22778

    Профиль
    Написать сообщение

    6531
    # 26 декабря 2018 17:18

    С андроидом 8 не хочет дружить.

    Профессионал с фотоаппаратом и с хорошим настроением.
  • GooDMooD Фото-юзер года
    офлайн
    GooDMooD Фото-юзер года

    6531

    14 лет на сайте
    пользователь #22778

    Профиль
    Написать сообщение

    6531
    # 27 декабря 2018 06:51

    UPD: нашел решение проблемы, при подключении к устройству нужно отключить мобильный интернет.

    Профессионал с фотоаппаратом и с хорошим настроением.
  • smart_is Junior Member
    офлайн
    smart_is Junior Member

    58

    7 лет на сайте
    пользователь #554772

    Профиль
    Написать сообщение

    58
    # 23 февраля 2019 01:36

    Есть ещё адекватные отзывы?