• alexsoll Senior MemberАвтор темы
    офлайн
    alexsoll Senior Member Автор темы

    6248

    10 лет на сайте
    пользователь #178950

    Профиль
    Написать сообщение

    6248
    # 28 ноября 2016 18:41 Редактировалось alexsoll, 3 раз(а).


    Модель 2018-2019 года - 1 канальный видеорегистратор SGGCX2PRO с более мощным процессором Novatek NT96663, CMOS сенсором Sony Exmor R IMX291 (STARVIS), возможностью подключения задней камеры (доп. опция, приобретается отдельно), улучшенной комплектацией и др.- https://goo.gl/aVEpGr
    Обсуждение - https://goo.gl/7QxzXG

    Модель 2017-2018 года - 1 канальный видеорегистратор SGGCX2 - http://bit.ly/2Bb5liF
    Обсуждение - http://bit.ly/2mK5sJF

    Модель 2018 года - 2х канальный SG9663DC - http://bit.ly/2AIi8ZC
    Обсуждение - http://bit.ly/2yy0O67

    Street Guardian SG9665XS на оф. сайте - https://streetguardian.info/sg9665xs-full-hd-dvr.html

    Street Guardian 1080p30 DVR
    Processor: Novatek NT96650
    Lens: 7 Element all Glass lens, 120° horizontal viewing angle
    CMOS sensor: Aptina AR0330
    Video resolution: Full HD 1080P at 30fps @ 15Mbit/sec
    Video format: H.264 compression, MOV format
    LCD display: 2.0-inch HD TFT screen
    Microphone: Built-in, on/off menu selectable
    Speaker: Built in
    Storage media: MicroSD card, 32GB Class10 recommended, 128GB maximum*
    Gapless recording: Supported
    Recording cycle: Menu selectable 1 min/3 min/5 min
    Date stamped video: Supported
    Motion detection: Supported
    Soft shutdown: Supported, last file save and soft shutdown
    Screen saver: Supported, menu selectable, 10 seconds, 30 seconds, 60 seconds, Off
    Built-in G-sensor: Yes, with adjustable sensitivity
    Incident file protect: Automatic by G-Sensor/Manual emergency by button
    Exposure compensation: Automatic
    White balance: Auto
    Language: English/Spanish/Russian/Portuguese/German/Italian/Japanese/French/Simplified Chinese/Traditional Chinese
    Power supply: Fail-safe Super Capacitor
    RTC: (Real Time Clock) Supported
    Direct 12v~24v input
    Unit Net Weight: 65g
    *Memory cards greater than 32GB must be formatted FAT32

    Format : MPEG-4
    Format profile : QuickTime
    Codec ID : qt 0000.00 (qt )
    File size : 326 MiB
    Duration : 3 min
    Overall bit rate : 15.1 Mb/s
    Movie_More : CarDV-TURNKEY
    Encoded date : UTC 2016-11-01 17:05:22
    Tagged date : UTC 2016-11-01 17:05:22
    Origin : NVT-IM

    Video
    ID : 1
    Format : AVC
    Format/Info : Advanced Video Codec
    Format profile : High@L4.1
    Format settings, CABAC : Yes
    Format settings, ReFrames : 1 frame
    Format settings, GOP : M=1, N=15
    Codec ID : avc1
    Codec ID/Info : Advanced Video Coding
    Duration : 3 min
    Bit rate : 13.9 Mb/s
    Width : 1 920 pixels
    Height : 1 080 pixels
    Display aspect ratio : 16:9
    Frame rate mode : Constant
    Frame rate : 30.000 FPS
    Color space : YUV
    Chroma subsampling : 4:2:0
    Bit depth : 8 bits
    Scan type : Progressive
    Bits/(Pixel*Frame) : 0.224
    Stream size : 301 MiB (92%)
    Language : English
    Encoded date : UTC 2016-11-01 17:05:22
    Tagged date : UTC 2016-11-01 17:05:22

    Audio
    ID : 2
    Format : PCM
    Format settings, Endianness : Little
    Format settings, Sign : Signed
    Codec ID : sowt
    Duration : 3 min
    Bit rate mode : Constant
    Bit rate : 512 kb/s
    Channel(s) : 1 channel
    Sampling rate : 32.0 kHz
    Bit depth : 16 bits
    Stream size : 11.0 MiB (3%)
    Language : English
    Encoded date : UTC 2016-11-01 17:05:22
    Tagged date : UTC 2016-11-01 17:05:22



    +375296013901 (WhatsApp, Telegram)
  • alexsoll Senior MemberАвтор темы
    офлайн
    alexsoll Senior Member Автор темы

    6248

    10 лет на сайте
    пользователь #178950

    Профиль
    Написать сообщение

    6248
    # 18 декабря 2016 00:04

    +375296013901 (WhatsApp, Telegram)
  • alexsoll Senior MemberАвтор темы
    офлайн
    alexsoll Senior Member Автор темы

    6248

    10 лет на сайте
    пользователь #178950

    Профиль
    Написать сообщение

    6248
    # 6 февраля 2017 22:56 Редактировалось alexsoll, 1 раз.
    +375296013901 (WhatsApp, Telegram)
  • alexsoll Senior MemberАвтор темы
    офлайн
    alexsoll Senior Member Автор темы

    6248

    10 лет на сайте
    пользователь #178950

    Профиль
    Написать сообщение

    6248
    # 3 апреля 2017 00:36

    firmware_1.00.08

    +375296013901 (WhatsApp, Telegram)